Saturday, 18 December 2010

T-ara - Why Are You Being Like This @ MBC Music Core [2010.12.18]

Format                           : MPEG-PS
File size                        : 378 MiB
Duration                         : 2mn 56s
Overall bit rate                 : 18.0 Mbps

Video
ID                               : 224 (0xE0)
Format                           : MPEG Video
Format version                   : Version 2
Format profile                   : Main@High
Format settings, BVOP            : Yes
Format settings, Matrix          : Default
Format_Settings_GOP              : M=2, N=16
Duration                         : 2mn 56s
Bit rate mode                    : Variable
Bit rate                         : 16.8 Mbps
Nominal bit rate                 : 17.4 Mbps
Width                            : 1 920 pixels
Height                           : 1 080 pixels
Display aspect ratio             : 16:9
Frame rate                       : 29.970 fps
Standard                         : Component
Resolution                       : 8 bits
Colorimetry                      : 4:2:0
Scan type                        : Interlaced
Scan order                       : Bottom Field First
Bits/(Pixel*Frame)               : 0.271
Stream size                      : 354 MiB (94%)

Audio
ID                               : 128 (0x80)
Format                           : AC-3
Format/Info                      : Audio Coding 3
Duration                         : 2mn 56s
Bit rate mode                    : Constant
Bit rate                         : 448 Kbps
Channel(s)                       : 2 channels
Channel positions                : Front: L R
Sampling rate                    : 48.0 KHz
Stream size                      : 9.41 MiB (2%)
DOWNLOAD

Sexy asian wallpapper 2





DOWNLOAD

Models 2010 HQ Pictures

Models 2010 HQ Pictures
67 Pics | JPG | 51 MB

DOWNLOAD

155 Best Anime Girls Wallpapers

155 Best Anime Girls Wallpapers
155 Pics | 1600x1200 | JPG | 99 Mb

DOWNLOAD

Friday, 17 December 2010

Super sexy asian girl wallpapper





DOWNLOAD

Super sexy girls wallpapers collection 1600x1200




DOWNLOAD

50 Hot and Sexy Anime Girls Wallpapers






DOWNLOAD

Sexy girl Strictly Girl Mikie Hara




Hot sexy girl Reina Fujii 2010



DOWNLOAD

Vietnamese Girls HQ Wallpapers

Girls In VietNam HQ Wallpapers
707 Pics | JPG | From 350x466 to 768x1024 | 128 MB
 DOWNLOAD

Asian Girls Wallpapers

Asian Girls Wallpapers
295 Pics | JPG | 85 Mb

DOWNLOAD

Thursday, 16 December 2010

540 Best Nature and City HQ Wallpapers (1920x1200 - 1920x1080)

Format : JPG
Resolution : 1920x1200 & 1920x1080

Compressed File : 4 part 100 MiB & 1 part 53.9 Mib
Quantity : 540 Pics

DOWNLOAD

Atomic Kitten - Eternal Flame (Right Now Album -2001)

Format : MPEG-PS
Lenght : 156 MiB for 3mn 15s

Video : MPEG Video at 4 874 Kbps
Aspect: (4:3) 720x 576 at 25.000 fps

Audio : PCM at 1536 Kbps
Infos: 2 channels, 48.0 KHz

DOWNLOAD

Human Nature - Eternal Flame (Counting Down Album - 1999)

Format : MPEG-PS
Lenght : 151 MiB for 3mn 17s


Video : MPEG Video at 5 787 Kbps
Aspect: 720x576 ( 4:3) at 25.000 fps

Audio : AC-3 at 384 Kbps
Infos : 2 channels, 48.0 KHz

DOWNLOAD

The Bangles - Eternal Flame (Original Version - 1989)

Format : MPEG-PS
Lenght : 272 MiB for 4mn 11s

Video : MPEG Video at 7 172 Kbps
Aspect : 720x480(4:3) at 29.970 fps

Audio : PCM at 1 536 Kbps
Infos : 2 channels, 48.0 KHz

DOWNLOAD

Lily Allen - London Live Special HDTV 1080i

Format : MPEG-TS at 10.3 Mbps
Length : 844 MiB for 11mn 28s 126ms

Video #0 : AVC at 9 700 Kbps
Aspect : 1920 x 1080 (1.778) at 25.000 fps

Audio #0 : MPEG Audio at 256 Kbps
Infos : 2 channels, 48.0 KHz


Thanks To ExoCaps


Track list
The Fear
Smile
Who'd Have Known
22
 
DOWNLOAD

LinkWithin